Filo & Peri / Nightplay - 2009 (оригинал) ALAC, lossless

Скачать

Filo & Peri - Nightplay

Год: 2009

Страна: USA

Жанр: Trance

Тип издания: оригинал

Продолжительность: 01:08:20

Тексты: отсутствуют

Кодек: ALAC

Программа-риповщик : XLD (lossless)

Битрейт: lossless

Треклист:

1. Back Into Our Lives (with Eric Lumiere)

2. Off the Hook (with Eric Lumiere)

3. Caicos Bay

4. Let You Know (feat. Linnea Handberg)

5. You (feat. Fisher)

6. Soul and the Sun (with Eric Lumiere)

7. All I Ask (feat. Fisher)

8. Bright Lights

9. Ashley (feat. Aruna)

10. The Majestic (with Nick Stufano)

11. Air In Phase

12. Music Matters (with Nick Stufano)

13. Far From Reach (with Mike Saint Jules)

14. Black Ice

15. Amp'd Up

Лог извлечения/проверки

X Lossless Decoder version 20110312 (130.0)

XLD extraction logfile from 2011-04-06 00:14:13 +0400

Filo & Peri / Nightplay

Used drive : MATSHITA DVD-R UJ-857E (revision ZF1E)

Ripper mode : CDParanoia III 10.2

Disable audio cache : OK for the drive with a cache less than 2750KiB

Make use of C2 pointers : NO

Read offset correction : 102

Max retry count : 100

Gap status : Analyzed, Appended

TOC of the extracted CD

Track | Start | Length | Start sector | End sector

---------------------------------------------------------

1 | 00:00:00 | 04:52:69 | 0 | 21968

2 | 04:52:69 | 05:25:30 | 21969 | 46373

3 | 10:18:24 | 04:40:45 | 46374 | 67418

4 | 14:58:69 | 05:12:14 | 67419 | 90832

5 | 20:11:08 | 05:03:14 | 90833 | 113571

6 | 25:14:22 | 04:41:09 | 113572 | 134655

7 | 29:55:31 | 02:55:61 | 134656 | 147841

8 | 32:51:17 | 03:53:04 | 147842 | 165320

9 | 36:44:21 | 05:05:57 | 165321 | 188252

10 | 41:50:03 | 04:35:21 | 188253 | 208898

11 | 46:25:24 | 05:08:23 | 208899 | 232021

12 | 51:33:47 | 04:29:25 | 232022 | 252221

13 | 56:02:72 | 04:24:41 | 252222 | 272062

14 | 60:27:38 | 04:19:13 | 272063 | 291500

15 | 64:46:51 | 03:39:69 | 291501 | 307994

AccurateRip Summary

Disc not found in AccurateRip DB.

All Tracks

Statistics

Read error : 0

Skipped (treated as error) : 0

Edge jitter error (maybe fixed) : 0

Atom jitter error (maybe fixed) : 0

Drift error (maybe fixed) : 0

Dropped bytes error (maybe fixed) : 0

Duplicated bytes error (maybe fixed) : 0

Track 01

Filename : /Users/dmitrijplatonov/Desktop/Filo & Peri - Nightplay (РўР -761)/01-01.Back Into Our Lives (with Eric Lumiere) .m4a

Pre-gap length : 00:02:00

CRC32 hash (test run) : 0BDA9A84

CRC32 hash : 0BDA9A84

CRC32 hash (skip zero) : 0DDC3051

AccurateRip signature : 1560876A

->Track not present in AccurateRip database.

Statistics

Read error : 0

Skipped (treated as error) : 0

Edge jitter error (maybe fixed) : 0

Atom jitter error (maybe fixed) : 0

Drift error (maybe fixed) : 0

Dropped bytes error (maybe fixed) : 0

Duplicated bytes error (maybe fixed) : 0

Inconsistency in error sectors : 0

Track 02

Filename : /Users/dmitrijplatonov/Desktop/Filo & Peri - Nightplay (РўР -761)/01-02.Off the Hook (Vocal Mix) (with Eric Lumiere) .m4a

CRC32 hash (test run) : B2FD31EF

CRC32 hash : B2FD31EF

CRC32 hash (skip zero) : 887A92CB

AccurateRip signature : 08258A81

->Track not present in AccurateRip database.

Statistics

Read error : 0

Skipped (treated as error) : 0

Edge jitter error (maybe fixed) : 0

Atom jitter error (maybe fixed) : 0

Drift error (maybe fixed) : 0

Dropped bytes error (maybe fixed) : 0

Duplicated bytes error (maybe fixed) : 0

Inconsistency in error sectors : 0

Track 03

Filename : /Users/dmitrijplatonov/Desktop/Filo & Peri - Nightplay (РўР -761)/01-03.Caicos Bay.m4a

CRC32 hash (test run) : 29299CA0

CRC32 hash : 29299CA0

CRC32 hash (skip zero) : A956ADF6

AccurateRip signature : 11213F5B

->Track not present in AccurateRip database.

Statistics

Read error : 0

Skipped (treated as error) : 0

Edge jitter error (maybe fixed) : 0

Atom jitter error (maybe fixed) : 0

Drift error (maybe fixed) : 0

Dropped bytes error (maybe fixed) : 0

Duplicated bytes error (maybe fixed) : 0

Inconsistency in error sectors : 0

Track 04

Filename : /Users/dmitrijplatonov/Desktop/Filo & Peri - Nightplay (РўР -761)/01-04.Let You Know (Vocal Mix) (feat. Linnea Handberg) .m4a

CRC32 hash (test run) : 2A6B191D

CRC32 hash : 2A6B191D

CRC32 hash (skip zero) : 4F9F3F81

AccurateRip signature : 237BAE84

->Track not present in AccurateRip database.

Statistics

Read error : 0

Skipped (treated as error) : 0

Edge jitter error (maybe fixed) : 0

Atom jitter error (maybe fixed) : 0

Drift error (maybe fixed) : 0

Dropped bytes error (maybe fixed) : 0

Duplicated bytes error (maybe fixed) : 0

Inconsistency in error sectors : 0

Track 05

Filename : /Users/dmitrijplatonov/Desktop/Filo & Peri - Nightplay (РўР -761)/01-05.You (feat. Fisher) .m4a

CRC32 hash (test run) : B1012F0B

CRC32 hash : B1012F0B

CRC32 hash (skip zero) : 6346BA4E

AccurateRip signature : AFFB10A2

->Track not present in AccurateRip database.

Statistics

Read error : 0

Skipped (treated as error) : 0

Edge jitter error (maybe fixed) : 0

Atom jitter error (maybe fixed) : 0

Drift error (maybe fixed) : 0

Dropped bytes error (maybe fixed) : 0

Duplicated bytes error (maybe fixed) : 0

Inconsistency in error sectors : 0

Track 06

Filename : /Users/dmitrijplatonov/Desktop/Filo & Peri - Nightplay (РўР -761)/01-06.Soul and the Sun (with Eric Lumiere).m4a

CRC32 hash (test run) : F76435C1

CRC32 hash : F76435C1

CRC32 hash (skip zero) : 4929FCB6

AccurateRip signature : 281ACBDF

->Track not present in AccurateRip database.

Statistics

Read error : 0

Skipped (treated as error) : 0

Edge jitter error (maybe fixed) : 0

Atom jitter error (maybe fixed) : 0

Drift error (maybe fixed) : 0

Dropped bytes error (maybe fixed) : 0

Duplicated bytes error (maybe fixed) : 0

Inconsistency in error sectors : 0

Track 07

Filename : /Users/dmitrijplatonov/Desktop/Filo & Peri - Nightplay (РўР -761)/01-07.All I Ask (feat. Fisher).m4a

CRC32 hash (test run) : E9AB0D69

CRC32 hash : E9AB0D69

CRC32 hash (skip zero) : 0716E529

AccurateRip signature : 2BB8EA16

->Track not present in AccurateRip database.

Statistics

Read error : 0

Skipped (treated as error) : 0

Edge jitter error (maybe fixed) : 0

Atom jitter error (maybe fixed) : 0

Drift error (maybe fixed) : 0

Dropped bytes error (maybe fixed) : 0

Duplicated bytes error (maybe fixed) : 0

Inconsistency in error sectors : 0

Track 08

Filename : /Users/dmitrijplatonov/Desktop/Filo & Peri - Nightplay (РўР -761)/01-08.Bright Lights.m4a

CRC32 hash (test run) : 338679D0

CRC32 hash : 338679D0

CRC32 hash (skip zero) : C5334EAB

AccurateRip signature : 0CD393BE

->Track not present in AccurateRip database.

Statistics

Read error : 0

Skipped (treated as error) : 0

Edge jitter error (maybe fixed) : 0

Atom jitter error (maybe fixed) : 0

Drift error (maybe fixed) : 0

Dropped bytes error (maybe fixed) : 0

Duplicated bytes error (maybe fixed) : 0

Inconsistency in error sectors : 0

Track 09

Filename : /Users/dmitrijplatonov/Desktop/Filo & Peri - Nightplay (РўР -761)/01-09.Ashley (Club Mix) (feat. Aruna) .m4a

CRC32 hash (test run) : 8D8C5565

CRC32 hash : 8D8C5565

CRC32 hash (skip zero) : 70BAA839

AccurateRip signature : 301EAAEA

->Track not present in AccurateRip database.

Statistics

Read error : 0

Skipped (treated as error) : 0

Edge jitter error (maybe fixed) : 0

Atom jitter error (maybe fixed) : 0

Drift error (maybe fixed) : 0

Dropped bytes error (maybe fixed) : 0

Duplicated bytes error (maybe fixed) : 0

Inconsistency in error sectors : 0

Track 10

Filename : /Users/dmitrijplatonov/Desktop/Filo & Peri - Nightplay (РўР -761)/01-10.The Majestic (with Nick Stufano) .m4a

CRC32 hash (test run) : DC91BB79

CRC32 hash : DC91BB79

CRC32 hash (skip zero) : 8343C231

AccurateRip signature : EC2B8B87

->Track not present in AccurateRip database.

Statistics

Read error : 0

Skipped (treated as error) : 0

Edge jitter error (maybe fixed) : 0

Atom jitter error (maybe fixed) : 0

Drift error (maybe fixed) : 0

Dropped bytes error (maybe fixed) : 0

Duplicated bytes error (maybe fixed) : 0

Inconsistency in error sectors : 0

Track 11

Filename : /Users/dmitrijplatonov/Desktop/Filo & Peri - Nightplay (РўР -761)/01-11.Air In Phase.m4a

CRC32 hash (test run) : 57486995

CRC32 hash : 57486995

CRC32 hash (skip zero) : FC7198FE

AccurateRip signature : 6CDDC281

->Track not present in AccurateRip database.

Statistics

Read error : 0

Skipped (treated as error) : 0

Edge jitter error (maybe fixed) : 0

Atom jitter error (maybe fixed) : 0

Drift error (maybe fixed) : 0

Dropped bytes error (maybe fixed) : 0

Duplicated bytes error (maybe fixed) : 0

Inconsistency in error sectors : 0

Track 12

Filename : /Users/dmitrijplatonov/Desktop/Filo & Peri - Nightplay (РўР -761)/01-12.Music Matters (with Nick Stutano).m4a

CRC32 hash (test run) : 46E6D6B9

CRC32 hash : 46E6D6B9

CRC32 hash (skip zero) : DF83C0A1

AccurateRip signature : F14FE7FF

->Track not present in AccurateRip database.

Statistics

Read error : 0

Skipped (treated as error) : 0

Edge jitter error (maybe fixed) : 0

Atom jitter error (maybe fixed) : 0

Drift error (maybe fixed) : 0

Dropped bytes error (maybe fixed) : 0

Duplicated bytes error (maybe fixed) : 0

Inconsistency in error sectors : 0

Track 13

Filename : /Users/dmitrijplatonov/Desktop/Filo & Peri - Nightplay (РўР -761)/01-13.Far from Reach (with Mike Saint Jules).m4a

CRC32 hash (test run) : 803507B6

CRC32 hash : 803507B6

CRC32 hash (skip zero) : F2677296

AccurateRip signature : 92728490

->Track not present in AccurateRip database.

Statistics

Read error : 0

Skipped (treated as error) : 0

Edge jitter error (maybe fixed) : 0

Atom jitter error (maybe fixed) : 0

Drift error (maybe fixed) : 0

Dropped bytes error (maybe fixed) : 0

Duplicated bytes error (maybe fixed) : 0

Inconsistency in error sectors : 0

Track 14

Filename : /Users/dmitrijplatonov/Desktop/Filo & Peri - Nightplay (РўР -761)/01-14.Black Ice.m4a

CRC32 hash (test run) : 3FDEB6D0

CRC32 hash : 3FDEB6D0

CRC32 hash (skip zero) : 30D9F244

AccurateRip signature : D65A6401

->Track not present in AccurateRip database.

Statistics

Read error : 0

Skipped (treated as error) : 0

Edge jitter error (maybe fixed) : 0

Atom jitter error (maybe fixed) : 0

Drift error (maybe fixed) : 0

Dropped bytes error (maybe fixed) : 0

Duplicated bytes error (maybe fixed) : 0

Inconsistency in error sectors : 0

Track 15

Filename : /Users/dmitrijplatonov/Desktop/Filo & Peri - Nightplay (РўР -761)/01-15.Amp'd Up.m4a

CRC32 hash (test run) : 63F7789A

CRC32 hash : 63F7789A

CRC32 hash (skip zero) : 50259FE9

AccurateRip signature : 4DA207B0

->Track not present in AccurateRip database.

Statistics

Read error : 0

Skipped (treated as error) : 0

Edge jitter error (maybe fixed) : 0

Atom jitter error (maybe fixed) : 0

Drift error (maybe fixed) : 0

Dropped bytes error (maybe fixed) : 0

Duplicated bytes error (maybe fixed) : 0

Inconsistency in error sectors : 0

No errors occurred

End of status report

Проверка Adobe Audition

Скачать