Lаb's Clоud - Orgаnic Mаthemаtics - 2011 (оригинал) ALAC, lossless

Скачать

Lаb's Clоud - Orgаnic Mаthemаtics - 2011 (оригинал) ALAC, lossless

Lаb's Clоud Orgаnic Mаthemаtics

Год: 2011

Жанр: Psybient, Downtempo, Ambient

Тип издания: оригинал

Издатель (лейбл): Altar Records

Номер по каталогу: ARCDA13

Наличие сканов в содержимом раздачи: да

Продолжительность: 01:19:16-Тексты: не требуются

Кодек: ALAC

Программа-риповщик : Illustrate dBpowerAMP (lossless)

Битрейт: lossless-Треклист:

01. Mi Dulce Nu (07:26)

02. In Deepest (07:38)

03. Fibonacci Progression (Feat. Keemiyo) (07:49)

04. Esmeralda (2011 Mix) (06:35)

05. A Journey With Your Angel (08:03)

06. Increasing Up To The Positive (08:13)

07. In A Digital World (08:43)

08. Evolving Natural Forms (07:39)

09. Dani's Guitar (07:30)

10. A Piece Of The Immensity (02:37)

11. Pascua En Cadalso (Feat. Keemiyo) (07:00)

Лог создания рипа

Exact Audio Copy V0.99 prebeta 5 from 4. May 2009

EAC extraction logfile from 30. June 2011, 22:56

Lab's Cloud / Organic Mathematics

Used drive : HL-DT-STDVD-RAM GSA-H60L Adapter: 2 ID: 0

Read mode : Secure

Utilize accurate stream : Yes

Defeat audio cache : Yes

Make use of C2 pointers : No

Read offset correction : 667

Overread into Lead-In and Lead-Out : No

Fill up missing offset samples with silence : Yes

Delete leading and trailing silent blocks : No

Null samples used in CRC calculations : Yes

Used interface : Native Win32 interface for Win NT & 2000

Used output format : User Defined Encoder

Selected bitrate : 1024 kBit/s

Quality : High

Add ID3 tag : No

Command line compressor : C:\Program Files\Exact Audio Copy\FLAC\FLAC.EXE

Additional command line options : -T "DATE=%y" -T "GENRE=%m" -8 -V %s

TOC of the extracted CD

Track | Start | Length | Start sector | End sector

---------------------------------------------------------

1 | 0:00.00 | 7:26.32 | 0 | 33481

2 | 7:26.32 | 7:38.15 | 33482 | 67846

3 | 15:04.47 | 7:49.31 | 67847 | 103052

4 | 22:54.03 | 6:35.27 | 103053 | 132704

5 | 29:29.30 | 8:03.26 | 132705 | 168955

6 | 37:32.56 | 8:13.25 | 168956 | 205955

7 | 45:46.06 | 8:43.10 | 205956 | 245190

8 | 54:29.16 | 7:39.16 | 245191 | 279631

9 | 62:08.32 | 7:30.00 | 279632 | 313381

10 | 69:38.32 | 2:37.61 | 313382 | 325217

11 | 72:16.18 | 7:00.29 | 325218 | 356746

Range status and errors

Selected range

Filename D:\Lab's Cloud - Organic Mathematics.wav

Peak level 99.3 %

Range quality 100.0 %

Test CRC F0406C0F

Copy CRC F0406C0F

Copy OK

No errors occurred

AccurateRip summary

Track 1 not present in database

Track 2 not present in database

Track 3 not present in database

Track 4 not present in database

Track 5 not present in database

Track 6 not present in database

Track 7 not present in database

Track 8 not present in database

Track 9 not present in database

Track 10 not present in database

Track 11 not present in database

None of the tracks are present in the AccurateRip database

End of status report

Лог проверки качества

-----------------------

DON'T MODIFY THIS FILE

-----------------------

PERFORMER: auCDtect Task Manager, ver. 1.5.1RC2 build 1.5.1.3

Copyright (c) 2008-2010 y-soft. All rights reserved

http://y-soft.org

ANALYZER: auCDtect: CD records authenticity detector, version 0.8.2

Copyright (c) 2004 Oleg Berngardt. All rights reserved.

Copyright (c) 2004 Alexander Djourik. All rights reserved.

FILE: 02. In Deepest.wav

Size: 80826524 Hash: 7F77C223038E024A4F3129D433D8CBCB Accuracy: -m0

Conclusion: CDDA 100%

Signature: DEA48ABBEF0AD0D691C062DC47E898E00FC6EE1B

FILE: 01. Mi Dulce Nu.wav

Size: 78749708 Hash: 62FE66C85CF2ABB01CDC7AC9A476E44A Accuracy: -m0

Conclusion: CDDA 100%

Signature: 043D2C66C051FD42D1CFF92E67156891ADC10E1A

FILE: 11. Pascua En Cadalso.wav

Size: 74156252 Hash: 3E08733843D1ABF7D565777C942295CB Accuracy: -m0

Conclusion: CDDA 100%

Signature: 20BBE3360BF465BF4BA10512860678AE9269E77B

FILE: 10. A Piece Of The Immensity.wav

Size: 27838316 Hash: 00AD98086A396F722F5EF047F20217AB Accuracy: -m0

Conclusion: CDDA 100%

Signature: 9ABD89AB04B4675E081DE49B4A593C7C639829D3

FILE: 09. Dani's Guitar.wav

Size: 79380044 Hash: 684E8360A088F378925D987F37114C77 Accuracy: -m0

Conclusion: CDDA 100%

Signature: BA1DBFC9C4CA9B72BDFFC1C04EDA446D95ADE326

FILE: 08. Evolving Natural Forms.wav

Size: 81005276 Hash: 695064FC21C9F808EDA69D558B7F9675 Accuracy: -m0

Conclusion: CDDA 99%

Signature: FBE3E54519238C0CFE84A73892D5EC2729BF054E

FILE: 07. In A Digital World.wav

Size: 92280764 Hash: F87521BB5BE7D4521334E55288EBE945 Accuracy: -m0

Conclusion: CDDA 100%

Signature: 4766B91F6AFE4C1FF53B892782F6618A32444222

FILE: 06. Increasing Up To The Positive.wav

Size: 87024044 Hash: AAAF7D3A64BF9C7E6F8FEC17AF645718 Accuracy: -m0

Conclusion: CDDA 100%

Signature: 06A4353BE34F4A11B2358395CCF4FDC640090621

FILE: 05. A Journey With Your Angel.wav

Size: 85262396 Hash: 287CC164A8894C1785EB10B987A29D4E Accuracy: -m0

Conclusion: CDDA 99%

Signature: 1B60E91027A2DFFF89B05FCD749B3A94D5C13334

FILE: 04. Esmeralda 2011.wav

Size: 69741548 Hash: 81A5E75F6E3A2F3E66B077E66788E929 Accuracy: -m0

Conclusion: CDDA 100%

Signature: 9E759CD2B841963130F7710505011C2A43D13E1E

FILE: 03. Fibonacci Progression.wav

Size: 82804556 Hash: B4D976B9B9759763D0466D9987DEAEAD Accuracy: -m0

Conclusion: CDDA 100%

Signature: 5505E60D745B7F83E29E6577FCE49301152026F5

Источник: Lossless - (vostrik) Original CD- -

Скачать